Форум - Попрошайки - Jeff Buckley - Grace - 1994 / 345 MB

  • Аватар пользователя
    [ Пользователь удален ] #2592
    13 Мая 2010 года в 17:24:22
  • http://rutracker.org/forum/viewtopic.php?t=1738636

    (Singer/Songwriter, Alternative Rock, Acoustic Rock) Jeff Buckley - Grace - 1994, APE (image+.cue), lossless

    https://img.megatorrents.kg/images/9qF49778.jpg

    Год выпуска диска: 1994
    Производитель диска: Europe
    Жанр: Alternative Rock, Acoustic Rock
    Аудио кодек: APE
    Тип рипа: image+.cue
    Битрейт аудио: lossless
    Продолжительность: 57:02

    Трэклист:
    01. Mojo Pin (5:43)
    02. Grace (5:22)
    03. Last Goodbye (4:35)
    04. Lilac Wine (4:32)
    05. So Real [4:44)
    06. Hallelujah (6:53)
    07. Lover, You Should've Come Over (6:43)
    08. Corpus Christi Carol (2:57)
    09. Eternal Life (4:53)
    10. Dream Brother (5:25)
    Bonus Track:
    11. Forget Her (5:13)

    [hide=Log EAC:]Exact Audio Copy V0.99 prebeta 4 from 23. January 2008

    Отчёт EAC об извлечении, выполненном 8. апреля 2009, 21:56

    Jeff Buckley / Grace

    Дисковод: HL-DT-STDVD-RW GSA-H60L Adapter: 0 ID: 1

    Режим чтения : Достоверность
    Использование точного потока : Да
    Отключение кэша аудио : Да
    Использование указателей C2 : Нет

    Коррекция смещения при чтении : 667
    Способность читать области Lead-in и Lead-out : Нет
    Заполнение пропущенных сэмплов тишиной : Да
    Удаление блоков с тишиной в начале и конце : Нет
    При вычислениях CRC использовались нулевые сэмплы : Да
    Интерфейс : Встроенный Win32-интерфейс для Win NT/2000

    Выходной формат : Внутренние WAV-операции
    Формат сэмплов : 44.100 Гц; 16 бит; стерео

    TOC извлечённого CD

    Трек | Старт | Длительность | Начальный сектор | Конечный сектор
    ---------------------------------------------------------------------
    1 | 0:00.00 | 5:42.63 | 0 | 25712
    2 | 5:42.63 | 5:22.11 | 25713 | 49873
    3 | 11:04.74 | 4:35.37 | 49874 | 70535
    4 | 15:40.36 | 4:32.24 | 70536 | 90959
    5 | 20:12.60 | 4:43.53 | 90960 | 112237
    6 | 24:56.38 | 6:53.24 | 112238 | 143236
    7 | 31:49.62 | 6:43.14 | 143237 | 173475
    8 | 38:33.01 | 2:57.11 | 173476 | 186761
    9 | 41:30.12 | 4:52.50 | 186762 | 208711
    10 | 46:22.62 | 5:25.28 | 208712 | 233114
    11 | 51:48.15 | 5:13.23 | 233115 | 256612

    Характеристики диапазона извлечения и сообщения об ошибках

    Выбранный диапазон

    Имя файла C:МОЕTorrentsJeff Buckley - Grace (1994)Jeff Buckley - Grace.wav

    Пиковый уровень 100.0 %
    Качество диапазона 100.0 %
    CRC копии C4924C07
    Копирование... OK

    Ошибок не произошло

    AccurateRip: сводка

    Трек 1 точное извлечение (доверие 83) [D9B58F56]
    Трек 2 точное извлечение (доверие 84) [6E444A93]
    Трек 3 точное извлечение (доверие 85) [00BC42CE]
    Трек 4 точное извлечение (доверие 84) [E67CD236]
    Трек 5 точное извлечение (доверие 85) [0DEA6CDB]
    Трек 6 точное извлечение (доверие 85) [8E69E31B]
    Трек 7 точное извлечение (доверие 84) [5E55717E]
    Трек 8 точное извлечение (доверие 84) [E2D94709]
    Трек 9 точное извлечение (доверие 84) [0B077E83]
    Трек 10 точное извлечение (доверие 83) [3E6A5B78]
    Трек 11 точное извлечение (доверие 84) [AE059A92]

    Все треки извлечены точно

    Конец отчёта[/hide]

    Отредактировал(а) 13 Мая 2010 года в 17:25:48


  • Аватар пользователя mr Lossless
    mr Lossless (Опытный пользователь) #2594
    13 Мая 2010 года в 18:10:35
  • лью

  • Аватар пользователя
    [ Пользователь удален ] #2598
    13 Мая 2010 года в 19:13:32
  • спасибо


  • 1
Быстрый переход: